Witaj Gościu! jeżeli widzisz ten dymek to znaczy że nie jesteś zarejestrowany/zalogowany. Kliknij by się zarejestrować. Rejestracja zajmie mniej niż 30 sekund, a dzięki niej zyskasz możliwość pobierania, komentowania oraz dodawania torrentów !

User:      Hasło:     

MENU


Kategorie
Sitemap


FACEBOOK


PROGRAMY


WspółPraca
Poradnik
KAN


ZAGŁOSUJ NA NAS


Torrent



Torrent: Biblia - The Bible *2013* [E07] 720p [BRRip x264] [AC3] [Lektor PL]
Dodał:  viola62
Data: 07-01-2017
Rozmiar: 1.23 GB
Seed: 1
Peer: 9
Kondycja:
Zaloguj się aby pobrać


Kategoria:  Filmy x264/h264
Gatunek: Biograficzny
Zaakceptował: Nie wymagał akceptacji
Liczba pobrań: 8
Liczba komentarzy: 0
Ostatnia aktualizacja: 2017-01-07 21:07:04

OPIS:



gatunek: ........... Religijny, Dramat historyczny
kraje: ............USA, Wielka Brytania
premiera ...........2013-03-03 (świat), 2014-05-07 (dvd)
muzyka:..............Lorne Balfe
zdjęcia:..............Peter Greenhalgh,Rob Goldie
miniserial/epizodow ..10




http://www.filmweb.pl/serial/Biblia-2013-681562

http://fdb.pl/film/483311-biblia

http://www.imdb.com/title/tt2245988/?ref_=nv_sr_3



Zapierający dech epickim rozmachem i spektakularnymi efektami specjalnymi serial "Biblia" został zrealizowany z drobiazgową, wręcz dokumentalną dbałością o szczegóły i prawdę historyczną. Najważniejsze historie Starego i Nowego Testamentu ożywają na ekranie, rozwijając się w pełne żywiołowej akcji obrazy filmowe, od stworzenia Świata poczynając, poprzez losy narodu izraelskiego i jego przymierze z Bogiem, aż po przełomowe wydarzenia, które w efekcie doprowadziły do ukrzyżowania i zmartwychwstania Jezusa Chrystusa. Historia narodzin chrześcijaństwa została opowiedziana w sposób fascynujący i porywający, i jednocześnie przystępny dla widzów w każdym wieku!



Diogo Morgado ............ Jezus Chrystus
Darwin Shaw .............. Piotr
Roma Downey .............. Maria, matka Jezusa
Sebastian Knapp .......... Jan
Amber Rose Revah ......... Maria Magdalena
Greg Hicks ............... Piłat
Adrian Schiller .......... Kajfasz



Format : Matroska
Format version : Version 4 / Version 2
File size : 1.22 GiB
Duration : 47mn 29s
Overall bit rate : 3 690 Kbps
Encoded date : UTC 2014-06-18 1507
Writing application : mkvmerge v7.0.0 ('Where We Going' 64bit built on Jun 9 2014 15:16:27
Writing library : libebml v1.3.0 + libmatroska v1.4.1

Video
ID : 1
Format : AVC
Format/Info : Advanced Video Codec
Format profile : High@L4.1
Format settings, CABAC : Yes
Format settings, ReFrames : 5 frames
Codec ID : V_MPEG4/ISO/AVC
Duration : 47mn 29s
Bit rate : 3 500 Kbps
Width : 1 280 pixels
Height : 720 pixels
Display aspect ratio : 16:9
Frame rate mode : Constant
Frame rate : 23.976 fps
Color space : YUV
Chroma subsampling : 4:2:0
Bit depth : 8 bits
Scan type : Progressive
Bits/(Pixel*Frame) : 0.158
Stream size : 1.14 GiB (93%)
Writing library : x264 core 142 r2412 d7e6896
Encoding settings : cabac=1 / ref=5 / deblock=1:-1:-1 / analyse=0x3:0x113 / me=umh / subme=8 / psy=1 / psy_rd=1.00:0.15 / mixed_ref=1 / me_range=16 / chroma_me=1 / trellis=1 / 8x8dct=1 / cqm=0 / deadzone=21,11 / fast_pskip=1 / chroma_qp_offset=-3 / threads=6 / lookahead_threads=1 / sliced_threads=0 / nr=0 / decimate=1 / interlaced=0 / bluray_compat=0 / constrained_intra=0 / bframes=3 / b_pyramid=2 / b_adapt=2 / b_bias=0 / direct=3 / weightb=1 / open_gop=0 / weightp=2 / keyint=240 / keyint_min=24 / scenecut=40 / intra_refresh=0 / rc_lookahead=50 / rc=2pass / mbtree=1 / bitrate=3500 / ratetol=1.0 / qcomp=0.60 / qpmin=0 / qpmax=69 / qpstep=4 / cplxblur=20.0 / qblur=0.5 / vbv_maxrate=62500 / vbv_bufsize=78125 / nal_hrd=none / filler=0 / ip_ratio=1.40 / aq=1:1.00
Default : Yes
Forced : No
Color range : Limited
Color primaries : BT.709
Transfer characteristics : BT.709
Matrix coefficients : BT.709
DURATION : 00:47:29.889000000
NUMBER_OF_FRAMES : 68329
NUMBER_OF_BYTES : 1245577282
_STATISTICS_WRITING_APP : mkvmerge v7.0.0 ('Where We Going' 64bit built on Jun 9 2014 15:16:27
_STATISTICS_WRITING_DATE_UT : 2014-06-18 1507
_STATISTICS_TAGS : BPS DURATION NUMBER_OF_FRAMES NUMBER_OF_BYTES

Audio
ID : 2
Format : AC-3
Format/Info : Audio Coding 3
Mode extension : CM (complete main)
Format settings, Endianness : Big
Codec ID : A_AC3
Duration : 47mn 29s
Bit rate mode : Constant
Bit rate : 192 Kbps
Channel(s) : 2 channels
Channel positions : Front: L R
Sampling rate : 48.0 KHz
Compression mode : Lossy
Stream size : 65.2 MiB (5%)
Title : Stereo
Language : Polish

PS/ POBRALES -------> SEEDUJ /THX/

DETALE TORRENTA:[ ]
Podziękowania,
 




Komentarze